Email Adresiniz:
Şifreniz
  • Güvenlik Kodu:


  • Sifrenizi Unuttuysaniz Tiklayin.!

    Üye Degilseniz Üye Olmak Için Tiklayin.

    Giris Yap      -      Kayit Ol

    • Konuyu değerlendir: Bu Konuyu Puan Vermek İstermisiniz?

      The Warlords - Savaş Kralları 2007 3D 1080p HSBS - HDViSiON / 3D film indir


      Puan Değerlendirmesi: Toplam 0 Oy Kullanılmıştır, Ortalama Değerlendirme: Puandır.
    Toplam 1 adet sonuctan sayfa basi 1 ile 1 arasi kadar sonuc gösteriliyor
    Google Aramada Göster
    1. #1
      Soporov - ait Kullanıcı Resmi (Avatar)
      Üyelik tarihi
      Şubat.2012
      Mesajlar
      951
      Ettiği Teşekkür
      108
      154 mesaja 356 teşekkür aldı

      1080P Film indir The Warlords - Savaş Kralları 2007 3D 1080p HSBS - HDViSiON / 3D film indir

      The Warlords - Savaş Kralları 2007 3D 1080p HSBS - HDViSiON / 3D film indir



      The Warlords (2007) - IMDb


      Kod:
      General
      Unique ID                                : 195330269659683283751066062199614032802 (0x92F33DD573ECE52E884423FCA14F4BA2)
      Complete name                            : F:3d-torrentsdownloadThe.Warlords.3D.2007.GERMAN.DL.1080p.BLURAY.x264-HDViSiONhdv-twa3d-1080p.mkv
      Format                                   : Matroska
      Format version                           : Version 2
      File size                                : 6.43 GiB
      Duration                                 : 1h 53mn
      Overall bit rate                         : 8 100 Kbps
      Movie name                               : The Warlords 3D
      Encoded date                             : UTC 2012-02-10 11:13:02
      Writing application                      : mkvmerge v4.9.1 ('Ich will') gebaut am Jul 11 2011 23:53:15
      Writing library                          : libebml v1.2.1 + libmatroska v1.1.1
      
      Video
      ID                                       : 1
      Format                                   : AVC
      Format/Info                              : Advanced Video Codec
      Format profile                           : [email protected]
      Format settings, CABAC                   : Yes
      Format settings, ReFrames                : 5 frames
      Codec ID                                 : V_MPEG4/ISO/AVC
      Duration                                 : 1h 53mn
      Bit rate                                 : 6 430 Kbps
      Width                                    : 1 920 pixels
      Height                                   : 824 pixels
      Display aspect ratio                     : 2.35:1
      Frame rate                               : 23.976 fps
      Color space                              : YUV
      Chroma subsampling                       : 4:2:0
      Bit depth                                : 8 bits
      Scan type                                : Progressive
      Bits/(Pixel*Frame)                       : 0.170
      Stream size                              : 5.10 GiB (79%)
      Writing library                          : x264 core 120 r2146 bcd41db
      Encoding settings                        : cabac=1 / ref=5 / deblock=1:0:0 / analyse=0x3:0x133 / me=umh / subme=7 / psy=1 / psy_rd=1.00:0.00 / mixed_ref=1 / me_range=16 / chroma_me=1 / trellis=1 / 8x8dct=1 / cqm=0 / deadzone=21,11 / fast_pskip=0 / chroma_qp_offset=-2 / threads=9 / sliced_threads=0 / nr=0 / decimate=1 / interlaced=0 / bluray_compat=0 / constrained_intra=0 / bframes=3 / b_pyramid=2 / b_adapt=1 / b_bias=0 / direct=3 / weightb=1 / open_gop=0 / weightp=2 / keyint=250 / keyint_min=23 / scenecut=40 / intra_refresh=0 / rc_lookahead=40 / rc=crf / mbtree=1 / crf=21.0 / qcomp=0.60 / qpmin=0 / qpmax=69 / qpstep=4 / ip_ratio=1.40 / aq=1:1.00
      Language                                 : German
      
      Audio #1
      ID                                       : 2
      Format                                   : DTS
      Format/Info                              : Digital Theater Systems
      Format profile                           : ES
      Codec ID                                 : A_DTS
      Duration                                 : 1h 53mn
      Bit rate mode                            : Constant
      Bit rate                                 : 755 Kbps
      Channel(s)                               : 7 channels / 6 channels
      Channel positions                        : Front: L C R, Side: L R, Back: C, LFE / Front: L C R, Side: L R, LFE
      Sampling rate                            : 48.0 KHz
      Bit depth                                : 24 bits
      Compression mode                         : Lossy
      Stream size                              : 613 MiB (9%)
      Language                                 : German
      
      Audio #2
      ID                                       : 3
      Format                                   : DTS
      Format/Info                              : Digital Theater Systems
      Codec ID                                 : A_DTS
      Duration                                 : 1h 53mn
      Bit rate mode                            : Constant
      Bit rate                                 : 755 Kbps
      Channel(s)                               : 6 channels
      Channel positions                        : Front: L C R, Side: L R, LFE
      Sampling rate                            : 48.0 KHz
      Bit depth                                : 24 bits
      Compression mode                         : Lossy
      Stream size                              : 613 MiB (9%)
      Language                                 : English
      
      Menu
      00:00:00.000                             : en:00:00:00.000
      00:04:41.031                             : en:00:04:41.031
      00:15:29.971                             : en:00:15:29.971
      00:29:14.920                             : en:00:29:14.920
      00:40:38.019                             : en:00:40:38.019
      00:52:54.838                             : en:00:52:54.838
      01:04:28.948                             : en:01:04:28.948
      01:15:24.937                             : en:01:15:24.937
      01:28:14.873                             : en:01:28:14.873
      01:34:11.896                             : en:01:34:11.896
      01:44:17.543                             : en:01:44:17.543
      01:50:24.952                             : en:01:50:24.952







      Vip Üye Ol



    Konu Bilgileri

    Bu Konuya Gözatan Kullanıcılar

    Şu anda 1 kullanıcı bu konuyu görüntülüyor. (0 kayıtlı ve 1 misafir)

    Bu Konu için Etiketler

    Yetkileriniz

    • Konu Acma Yetkiniz Yok
    • Cevap Yazma Yetkiniz Yok
    • Eklenti Yükleme Yetkiniz Yok
    • Mesajınızı Değiştirme Yetkiniz Yok
    •